squallzhao
一代宗師

[更 早] [其它] [劇情] [BD-4K] 雙重危機 Double.Jeopardy.1999.2160p.WEB-DL.x265.10bit.HDR.DTS-HD.MA.5.1-NOGRP 21.57G

-->

帖子完整標題:雙重危機 Double.Jeopardy.1999.2160p.WEB-DL.x265.10bit.HDR.DTS-HD.MA.5.1-NOGRP 21.57GB



◎譯  名 雙重危機 / 致命追緝令 / 亡命追兇 / 雙重陰謀 / 雙重間諜
◎片  名 Double Jeopardy
◎年  代 1999
◎產  地 美國 / 德國 / 加拿大
◎類  別 劇情 / 懸疑 / 驚悚 / 犯罪
◎語  言 英語
◎上映日期 1999-09-21
◎IMDb鏈接 https://www.imdb.com/title/tt0150377/
◎豆瓣評分 7.2/10 (6986人評價)
◎豆瓣鏈接 https://movie.douban.com/subject/1292676/
◎片  長 105分鐘
◎導  演 布魯斯·貝爾斯福德 Bruce Beresford (id:1025303)
◎編  劇 大衛·韋斯伯格 David Weisberg (id:1356776)
      道格拉斯·庫克 Douglas Cook (id:1356775)
      張策 Ce Zhang (id:1327864)
◎演  員 湯米·李·瓊斯 Tommy Lee Jones (id:1047994)
      艾什莉·賈德 Ashley Judd (id:1000014)
      杰伊·布拉澤奧 Jay Brazeau (id:1078980)
      布魯斯·格林伍德 Bruce Greenwood (id:1025206)
      約翰·麥克拉倫 John Maclaren (id:1122099)
      安娜貝絲·吉什 Annabeth Gish (id:1031928)
      布倫南·埃利奧特 Brennan Elliott (id:1325403)
      邁克爾·加斯頓 Michael Gaston (id:1091100)
      吉蓮·芭伯 Gillian Barber (id:1032598)
      David Jacox David Jacox (id:1287526)
      貝齊·布蘭特利 Betsy Brantley (id:1074472)
      羅馬·瑪菲婭 Roma Maffia (id:1018053)
      達文尼亞·麥克法登 Davenia McFadden (id:1116054)
      加布里埃爾·羅斯 Gabrielle Rose (id:1296049)
      丹尼爾·萊派恩 Daniel Lapaine (id:1313018)
      瑪麗亞·埃雷拉 Maria Herrera (id:1055329)
      巴布斯丘拉 Babs Chula (id:1070391)
      恩卡·奧庫瑪 Enuka Okuma (id:1127886)
      David Fredericks David Fredericks (id:1342152)
      安娜·哈根 Anna Hagan (id:1095724)
      富爾·切切里 Fulvio Cecere (id:1079001)
      特雷西·維拉爾 Tracy Vilar (id:1000720)
      Addison Ridge Addison Ridge (id:1295650)
      因格里德·托倫斯 Ingrid Torrance (id:1156576)
      羅杰·R.克勞斯 Roger R. Cross (id:1055522)
      基岡·康納·特雷西 Keegan Connor Tracy (id:1152919)
      Dave Hager Dave Hager (id:1100869)
      Austin B. Church Austin B. Church (id:1068418)
      米凱爾·珊農·詹金斯 Mykel Shannon Jenkins (id:1112395)
      Michelle Stafford Michelle Stafford (id:1154170)
      Lance Spellerberg Lance Spellerberg (id:1155103)
      喬治·圖利亞托斯 George Touliatos (id:1151492)
      Brent Woolsey Brent Woolsey (id:1164745)
      斯賓塞·崔特·克拉克 Spencer Treat Clark (id:1027222)
      Tamer Riad Tamer Riad (id:1139243)
      Nicolas Roye Nicolas Roye (id:1144128)
      馬克·華納 Mark Warner (id:1300451)
      薩拉·芬蘭 Sarah Finn (id:1283741)
      德博拉·阿奎拉 Deborah Aquila (id:1277347)
      Andrew Neskoromny Andrew Neskoromny (id:1293058)
      Elizabeth Wilcox Elizabeth Wilcox (id:1300902)
      Linda M. Bass Linda M. Bass (id:1278047)
      Ashlee Petersen Ashlee Petersen (id:1294375)
      Norma Hill-Patton Norma Hill-Patton (id:1286633)
      西德妮·科內爾 Cydney Cornell (id:1281289)
      約翰·布雷克 John Blake (id:1278750)
      Charles Porlier Charles Porlier (id:1294748)
      布拉德·庫恩 Brad Kuehn (id:1289086)

◎簡  介
  莉比(艾什莉·賈德 Ashley Judd 飾)和丈夫尼克(布魯斯·格林伍德 Bruce Greenwood 飾)之間的感情十分要好,兩人共同養育乖巧可愛的兒子馬蒂(本杰明·韋弗 Benjamin Weaver 飾),幸福生活堪稱典范??墒?,在忽然之間,尼克神秘失蹤留下大量血跡,莉比則淪為嫌犯最終鋃鐺入獄。莉比將馬蒂托付給了好友安吉(安娜貝絲·吉什 Annabeth Gish 飾),自己則在獄友瑪格麗特(羅馬·瑪菲婭 Roma Maffia 飾)和伊芙琳(達文尼亞·麥克法登 Davenia McFadden 飾)的幫助下為了洗清罪名而做著不斷的努力。
一晃眼六年過去,塔維斯警官(湯米·李·瓊斯 Tommy Lee Jones 飾)成為了獲得了假釋的莉比的監護人,而此時的莉比發現,尼克不僅沒有死亡,甚至改頭換面帶著兒子和安吉過著隱姓埋名的生活。經歷了雙...

Video
ID : 1
Format : HEVC
Format/Info : High Efficiency Video Coding
Format profile : Main [email protected]@High
HDR format : SMPTE ST 2086, HDR10 compatible
Codec ID : V_MPEGH/ISO/HEVC
Duration : 1 h 45 min
Bit rate : 24.8 Mb/s
Width : 3 840 pixels
Height : 1 600 pixels
Display aspect ratio : 2.40:1
Frame rate mode : Constant
Frame rate : 23.976 FPS
Color space : YUV
Chroma subsampling : 4:2:0 (Type 2)
Bit depth : 10 bits
Bits/(Pixel*Frame) : 0.168
Stream size : 18.2 GiB (84%)
Default : Yes
Forced : No
Color range : Limited
Color primaries : BT.2020
Transfer characteristics : PQ
Matrix coefficients : BT.2020 non-constant
Mastering display color primaries : Display P3
Mastering display luminance : min: 0.0050 cd/m2, max: 1000 cd/m2
Maximum Content Light Level : 1123 cd/m2
Maximum Frame-Average Light Level : 177 cd/m2

Audio #1
ID : 2
Format : DTS XLL
Format/Info : Digital Theater Systems
Commercial name : DTS-HD Master Audio
Codec ID : A_DTS
Duration : 1 h 45 min
Bit rate mode : Variable
Bit rate : 4 188 kb/s
Channel(s) : 6 channels
Channel layout : C L R Ls Rs LFE
Sampling rate : 48.0 kHz
Frame rate : 93.750 FPS (512 SPF)
Bit depth : 24 bits
Compression mode : Lossless
Delay relative to video : 2 s 100 ms
Stream size : 3.08 GiB (14%)
Title : DTS-HD MA 5.1
Language : English
Default : Yes
Forced : No

Audio #2
ID : 3
Format : AC-3
Format/Info : Audio Coding 3
Commercial name : Dolby Digital
Codec ID : A_AC3
Duration : 1 h 45 min
Bit rate mode : Constant
Bit rate : 384 kb/s
Channel(s) : 6 channels
Channel layout : L R C LFE Ls Rs
Sampling rate : 48.0 kHz
Frame rate : 31.250 FPS (1536 SPF)
Compression mode : Lossy
Stream size : 289 MiB (1%)
Language : English
Service kind : Complete Main
Default : No
Forced : No

Text #1
ID : 4
Format : UTF-8
Codec ID : S_TEXT/UTF8
Codec ID/Info : UTF-8 Plain Text
Duration : 1 h 38 min
Bit rate : 60 b/s
Count of elements : 1248
Stream size : 44.1 KiB (0%)
Title : English CC
Language : English
Default : Yes
Forced : No

Text #2
ID : 5
Format : UTF-8
Codec ID : S_TEXT/UTF8
Codec ID/Info : UTF-8 Plain Text
Duration : 1 h 38 min
Bit rate : 62 b/s
Count of elements : 787
Stream size : 45.2 KiB (0%)
Title : Arabic
Language : Arabic
Default : No
Forced : No

Text #3
ID : 6
Format : UTF-8
Codec ID : S_TEXT/UTF8
Codec ID/Info : UTF-8 Plain Text
Duration : 1 h 39 min
Bit rate : 63 b/s
Count of elements : 738
Stream size : 46.2 KiB (0%)
Title : Bulgarian
Language : Bulgarian
Default : No
Forced : No

Text #4
ID : 7
Format : UTF-8
Codec ID : S_TEXT/UTF8
Codec ID/Info : UTF-8 Plain Text
Duration : 1 h 38 min
Bit rate : 35 b/s
Count of elements : 926
Stream size : 25.8 KiB (0%)
Title : Chinese Mandarin Chinese Simplified
Language : Chinese
Default : No
Forced : No

Text #5
ID : 8
Format : UTF-8
Codec ID : S_TEXT/UTF8
Codec ID/Info : UTF-8 Plain Text
Duration : 1 h 38 min
Bit rate : 33 b/s
Count of elements : 671
Stream size : 24.1 KiB (0%)
Title : Chinese Mandarin Chinese Traditional
Language : Chinese
Default : No
Forced : No

Text #6
ID : 9
Format : UTF-8
Codec ID : S_TEXT/UTF8
Codec ID/Info : UTF-8 Plain Text
Duration : 1 h 38 min
Bit rate : 38 b/s
Count of elements : 660
Stream size : 27.5 KiB (0%)
Title : Danish
Language : Danish
Default : No
Forced : No

Text #7
ID : 10
Format : UTF-8
Codec ID : S_TEXT/UTF8
Codec ID/Info : UTF-8 Plain Text
Duration : 1 h 38 min
Bit rate : 42 b/s
Count of elements : 802
Stream size : 30.5 KiB (0%)
Title : German
Language : German
Default : No
Forced : No

Text #8
ID : 11
Format : UTF-8
Codec ID : S_TEXT/UTF8
Codec ID/Info : UTF-8 Plain Text
Duration : 1 h 38 min
Bit rate : 50 b/s
Count of elements : 948
Stream size : 36.6 KiB (0%)
Title : Spanish Latin American
Language : Spanish
Default : No
Forced : No

Text #9
ID : 12
Format : UTF-8
Codec ID : S_TEXT/UTF8
Codec ID/Info : UTF-8 Plain Text
Duration : 1 h 38 min
Bit rate : 38 b/s
Count of elements : 794
Stream size : 27.7 KiB (0%)
Title : Spanish European
Language : Spanish
Default : No
Forced : No

Text #10
ID : 13
Format : UTF-8
Codec ID : S_TEXT/UTF8
Codec ID/Info : UTF-8 Plain Text
Duration : 1 h 38 min
Bit rate : 41 b/s
Count of elements : 668
Stream size : 29.8 KiB (0%)
Title : Finnish
Language : Finnish
Default : No
Forced : No

Text #11
ID : 14
Format : UTF-8
Codec ID : S_TEXT/UTF8
Codec ID/Info : UTF-8 Plain Text
Duration : 1 h 38 min
Bit rate : 40 b/s
Count of elements : 843
Stream size : 29.5 KiB (0%)
Title : French European
Language : French
Default : No
Forced : No

Text #12
ID : 15
Format : UTF-8
Codec ID : S_TEXT/UTF8
Codec ID/Info : UTF-8 Plain Text
Duration : 1 h 38 min
Bit rate : 51 b/s
Count of elements : 680
Stream size : 37.4 KiB (0%)
Title : Hebrew
Language : Hebrew
Default : No
Forced : No

Text #13
ID : 16
Format : UTF-8
Codec ID : S_TEXT/UTF8
Codec ID/Info : UTF-8 Plain Text
Duration : 1 h 43 min
Bit rate : 46 b/s
Count of elements : 1076
Stream size : 35.7 KiB (0%)
Title : Italian
Language : Italian
Default : No
Forced : No

Text #14
ID : 17
Format : UTF-8
Codec ID : S_TEXT/UTF8
Codec ID/Info : UTF-8 Plain Text
Duration : 1 h 38 min
Bit rate : 56 b/s
Count of elements : 1081
Stream size : 40.5 KiB (0%)
Title : Latvian
Language : Latvian
Default : No
Forced : No

Text #15
ID : 18
Format : UTF-8
Codec ID : S_TEXT/UTF8
Codec ID/Info : UTF-8 Plain Text
Duration : 1 h 43 min
Bit rate : 33 b/s
Count of elements : 644
Stream size : 25.4 KiB (0%)
Title : Dutch
Language : Dutch
Default : No
Forced : No

Text #16
ID : 19
Format : UTF-8
Codec ID : S_TEXT/UTF8
Codec ID/Info : UTF-8 Plain Text
Duration : 1 h 38 min
Bit rate : 35 b/s
Count of elements : 671
Stream size : 25.7 KiB (0%)
Title : Norwegian
Language : Norwegian
Default : No
Forced : No

Text #17
ID : 20
Format : UTF-8
Codec ID : S_TEXT/UTF8
Codec ID/Info : UTF-8 Plain Text
Duration : 1 h 38 min
Bit rate : 49 b/s
Count of elements : 1084
Stream size : 36.0 KiB (0%)
Title : Polish
Language : Polish
Default : No
Forced : No

Text #18
ID : 21
Format : UTF-8
Codec ID : S_TEXT/UTF8
Codec ID/Info : UTF-8 Plain Text
Duration : 1 h 38 min
Bit rate : 43 b/s
Count of elements : 923
Stream size : 31.2 KiB (0%)
Title : Portuguese Brazilian
Language : Portuguese
Default : No
Forced : No

Text #19
ID : 22
Format : UTF-8
Codec ID : S_TEXT/UTF8
Codec ID/Info : UTF-8 Plain Text
Duration : 1 h 38 min
Bit rate : 41 b/s
Count of elements : 714
Stream size : 30.1 KiB (0%)
Title : Portuguese European
Language : Portuguese
Default : No
Forced : No

Text #20
ID : 23
Format : UTF-8
Codec ID : S_TEXT/UTF8
Codec ID/Info : UTF-8 Plain Text
Duration : 1 h 44 min
Bit rate : 78 b/s
Count of elements : 1168
Stream size : 59.5 KiB (0%)
Title : Russian
Language : Russian
Default : No
Forced : No

Text #21
ID : 24
Format : UTF-8
Codec ID : S_TEXT/UTF8
Codec ID/Info : UTF-8 Plain Text
Duration : 1 h 38 min
Bit rate : 36 b/s
Count of elements : 668
Stream size : 26.6 KiB (0%)
Title : Swedish
Language : Swedish
Default : No
Forced : No

Text #22
ID : 25
Format : UTF-8
Codec ID : S_TEXT/UTF8
Codec ID/Info : UTF-8 Plain Text
Duration : 1 h 43 min
Bit rate : 49 b/s
Count of elements : 1114
Stream size : 37.4 KiB (0%)
Title : Turkish
Language : Turkish
Default : No
Forced : No

Menu
00:00:00.000 : en:Chapter 01
00:06:32.475 : en:Chapter 02
00:13:26.848 : en:Chapter 03
00:20:52.252 : en:Chapter 04
00:27:37.657 : en:Chapter 05
00:32:31.993 : en:Chapter 06
00:40:25.800 : en:Chapter 07
00:46:15.775 : en:Chapter 08
00:52:40.410 : en:Chapter 09
00:58:47.402 : en:Chapter 10
01:06:20.563 : en:Chapter 11
01:15:24.190 : en:Chapter 12
01:21:18.378 : en:Chapter 13
01:29:09.849 : en:Chapter 14
01:36:22.824 : en:Chapter 15
01:40:31.990 : en:Chapter 16





1 個附件 售價 大小 下載 時間

Double.Jeopardy.1999.2160p.WEB-DL.x265.10bit.HDR.DTS-HD.MA.5.1-NOGRP.torrent 0 金幣 27.62K 378 次 9小時前

#1樓
發帖時間:2022-05-11 18:27:28   |   回復數:1
liyouchai
隱世仙人♂
謝謝樓主分享資源
6小時前 #2樓
游客組