squallzhao
一代宗師

[更 早] [英國] [其它] [BD-Remux] 細說布魯斯音樂 Deep.Blues.1992.1080p.BluRay.REMUX.AVC.LPCM.2.0-FGT 24.52GB

-->

帖子完整標題:細說布魯斯音樂 Deep.Blues.1992.1080p.BluRay.REMUX.AVC.LPCM.2.0-FGT 24.52GB



◎譯  名 細說布魯斯音樂
◎片  名 Deep Blues
◎年  代 1991
◎產  地 英國
◎類  別 紀錄片 / 音樂
◎語  言 英語
◎上映日期 1992-07-31
◎IMDb鏈接 https://www.imdb.com/title/tt0101697/
◎豆瓣鏈接 https://movie.douban.com/subject/1437423/
◎片  長 USA: 91 分鐘
◎導  演 Robert Mugge Robert Mugge (id:1049013)
◎編  劇 Robert Palmer Robert Palmer (id:1133814)
◎演  員 R.L. Burnside R.L. Burnside (id:1068238)
      Lonnie Pitchford Lonnie Pitchford (id:1128175)
      Roosevelt Barnes Roosevelt Barnes (id:1062581)
      Robert Palmer Robert Palmer (id:1133814)
      Junior Kimbrough Junior Kimbrough (id:1109707)
      Big Jack Johnson Big Jack Johnson (id:1104487)
      Jessie Mae Hemphill Jessie Mae Hemphill (id:1096582)
      Jack Owens Jack Owens (id:1134469)
      Booker T. Laury Booker T. Laury (id:1113667)
      Bud Spires Bud Spires (id:1156642)
      大衛·A·斯圖瓦特 David A. Stewart (id:1050559)
      大衛·A·斯圖瓦特 David A. Stewart (id:1050559)
      Erich Roland Erich Roland (id:1295954)
      Robert Mugge Robert Mugge (id:1049013)

Video
ID : 1
ID in the original source medium : 4113 (0x1011)
Format : AVC
Format/Info : Advanced Video Codec
Format profile : [email protected]
Format settings : CABAC / 4 Ref Frames
Format settings, CABAC : Yes
Format settings, Reference frames : 4 frames
Codec ID : V_MPEG4/ISO/AVC
Duration : 1 h 31 min
Bit rate mode : Constant
Bit rate : 36.0 Mb/s
Width : 1 920 pixels
Height : 1 080 pixels
Display aspect ratio : 16:9
Frame rate mode : Constant
Frame rate : 23.976 (24000/1001/189150) FPS
Standard : NTSC
Color space : YUV
Chroma subsampling : 4:2:0
Bit depth : 8 bits
Scan type : Progressive
Bits/(Pixel*Frame) : 0.724
Stream size : 22.8 GiB (93%)
Language : English
Default : No
Forced : No
Color range : Limited
Color primaries : BT.709
Transfer characteristics : BT.709
Matrix coefficients : BT.709
Original source medium : Blu-ray

Audio #1
ID : 2
ID in the original source medium : 4352 (0x1100)
Format : PCM
Format settings : Little / Signed
Codec ID : A_PCM/INT/LIT
Duration : 1 h 31 min
Bit rate mode : Constant
Bit rate : 2 304 kb/s
Channel(s) : 2 channels
Sampling rate : 48.0 kHz
Frame rate : 30.000 FPS (1600 SPF)
Bit depth : 24 bits
Stream size : 1.47 GiB (6%)
Title : LPCM 2.0
Language : English
Default : Yes
Forced : No
Original source medium : Blu-ray

Audio #2
ID : 3
ID in the original source medium : 4353 (0x1101)
Format : AC-3
Format/Info : Audio Coding 3
Commercial name : Dolby Digital
Codec ID : A_AC3
Duration : 1 h 31 min
Bit rate mode : Constant
Bit rate : 448 kb/s
Channel(s) : 2 channels
Channel layout : L R
Sampling rate : 48.0 kHz
Frame rate : 31.250 FPS (1536 SPF)
Compression mode : Lossy
Stream size : 293 MiB (1%)
Title : DD 2.0
Language : English
Service kind : Complete Main
Default : No
Forced : No
Original source medium : Blu-ray

Text #1
ID : 4
Format : UTF-8
Codec ID : S_TEXT/UTF8
Codec ID/Info : UTF-8 Plain Text
Duration : 1 h 30 min
Bit rate : 59 b/s
Count of elements : 1102
Stream size : 39.4 KiB (0%)
Language : English
Default : Yes
Forced : No

Text #2
ID : 5
Format : UTF-8
Codec ID : S_TEXT/UTF8
Codec ID/Info : UTF-8 Plain Text
Duration : 1 h 31 min
Bit rate : 60 b/s
Count of elements : 1137
Stream size : 40.2 KiB (0%)
Title : SDH
Language : English
Default : No
Forced : No

Text #3
ID : 6
ID in the original source medium : 4608 (0x1200)
Format : PGS
Muxing mode : zlib
Codec ID : S_HDMV/PGS
Codec ID/Info : Picture based subtitle format used on BDs/HD-DVDs
Duration : 1 h 31 min
Bit rate : 42.1 kb/s
Count of elements : 2276
Stream size : 27.5 MiB (0%)
Language : English
Default : No
Forced : No
Original source medium : Blu-ray

Menu
00:00:00.000 : en:Chapter 01
00:08:54.283 : en:Chapter 02
00:15:27.259 : en:Chapter 03
00:23:45.173 : en:Chapter 04
00:32:19.020 : en:Chapter 05
00:37:30.331 : en:Chapter 06
00:50:00.163 : en:Chapter 07
00:54:36.523 : en:Chapter 08
01:02:18.901 : en:Chapter 09
01:12:56.538 : en:Chapter 10
01:23:00.433 : en:Chapter 11
01:25:32.377 : en:Chapter 12
01:31:23.686 : en:Chapter 13





1 個附件 售價 大小 下載 時間

Deep.Blues.1992.1080p.BluRay.REMUX.AVC.LPCM.2.0-FGT.torrent 0 金幣 31.28K 196 次 9小時前

#1樓
發帖時間:2022-05-11 18:23:24   |   回復數:0
游客組