squallzhao
一代宗師

[更 早] [美國] [劇情] [BD-Remux] 毒藥 Poison.1991.1080p.BluRay.REMUX.AVC.DTS-HD.MA.2.0-FGT 23.71GB

-->

帖子完整標題:毒藥 Poison.1991.1080p.BluRay.REMUX.AVC.DTS-HD.MA.2.0-FGT 23.71GB



◎譯  名 毒藥 / 愛情砒霜
◎片  名 Poison
◎年  代 1991
◎產  地 美國
◎類  別 劇情 / 愛情 / 恐怖 / 同性
◎語  言 英語
◎上映日期 1991-04-05
◎IMDb鏈接 https://www.imdb.com/title/tt0102687/
◎豆瓣評分 7.3/10 (984人評價)
◎豆瓣鏈接 https://movie.douban.com/subject/1292499/
◎片  長 85 分鐘
◎導  演 托德·海因斯 Todd Haynes (id:1014069)
◎編  劇 托德·海因斯 Todd Haynes (id:1014069)
      讓·熱內 Jean Genet (id:1037506)
◎演  員 約翰·G·康諾利 John G. Connolly (id:1313021)
      Lauren Zalaznick Lauren Zalaznick (id:1301614)
      Tony Pemberton Tony Pemberton (id:1294232)
      詹姆斯·夏慕斯 James Schamus (id:1050276)
      Lauren Zalaznick Lauren Zalaznick (id:1301614)
      瑪麗斯·阿爾伯蒂 Maryse Alberti (id:1032954)
      托德·海因斯 Todd Haynes (id:1014069)
      卡里姆·埃諾茲 Karim Ainouz (id:1014606)
      Sarah Stollman Sarah Stollman (id:1298481)

◎簡  介
  愛情可以醇如佳釀,也可毒如砒霜?!抖舅帯芬v的就是三個離經叛道的荒誕故事?!队⑿邸分械挠⑿鄄⒎鞘裁凑际堪罨蜩F金剛式打不死,而是一個乳臭未乾的黃毛小子。都說不可小覤新新人類的力量──年僅七歲的小主角槍殺無賴老豆,絕不手震?!犊刹馈废?0年代經典恐怖科幻片《變蠅人魔》致敬??茖W家成功研究出一個驚世實驗,把人類性欲化作液體保存。三個短篇中最引起爭議的,是描繪監獄另類春光的《兇毛》。一個終生囚犯不能自拔的迷戀囚友,自虐被虐共冶一爐,引人入「性」。粗獷暴烈的場面赤裸裸地沖擊觀眾底線。三段人生,三種手法?!蹲献斫鹈浴穼а萃刑睾6魉咕褪菓{本片奪得1991年辛丹士影展大獎,一鳴驚人。

◎獲獎情況 (共1項)
  第41屆柏林國際電影節 (1991)
  泰迪熊獎 最佳電影
   └──托德·海因斯 (id:1014069)

Video
ID : 1
ID in the original source medium : 4113 (0x1011)
Format : AVC
Format/Info : Advanced Video Codec
Format profile : [email protected]
Format settings : CABAC / 4 Ref Frames
Format settings, CABAC : Yes
Format settings, Reference frames : 4 frames
Codec ID : V_MPEG4/ISO/AVC
Duration : 1 h 25 min
Bit rate mode : Constant
Bit rate : 40.0 Mb/s
Width : 1 920 pixels
Height : 1 080 pixels
Display aspect ratio : 16:9
Frame rate mode : Constant
Frame rate : 23.976 (24000/1001/189150) FPS
Color space : YUV
Chroma subsampling : 4:2:0
Bit depth : 8 bits
Scan type : Progressive
Bits/(Pixel*Frame) : 0.804
Stream size : 22.8 GiB (96%)
Language : English
Default : No
Forced : No
Original source medium : Blu-ray

Audio #1
ID : 2
ID in the original source medium : 4352 (0x1100)
Format : DTS XLL
Format/Info : Digital Theater Systems
Commercial name : DTS-HD Master Audio
Codec ID : A_DTS
Duration : 1 h 25 min
Bit rate mode : Variable
Bit rate : 589 kb/s
Channel(s) : 2 channels
Channel layout : L R
Sampling rate : 48.0 kHz
Frame rate : 93.750 FPS (512 SPF)
Bit depth : 16 bits
Compression mode : Lossless
Stream size : 361 MiB (1%)
Title : DTS-HD MA 2.0
Language : English
Default : Yes
Forced : No
Original source medium : Blu-ray

Audio #2
ID : 3
ID in the original source medium : 4353 (0x1101)
Format : DTS XLL
Format/Info : Digital Theater Systems
Commercial name : DTS-HD Master Audio
Codec ID : A_DTS
Duration : 1 h 25 min
Bit rate mode : Variable
Bit rate : 836 kb/s
Channel(s) : 2 channels
Channel layout : L R
Sampling rate : 48.0 kHz
Frame rate : 93.750 FPS (512 SPF)
Bit depth : 16 bits
Compression mode : Lossless
Stream size : 513 MiB (2%)
Title : DTS-HD MA 2.0
Language : English
Default : No
Forced : No
Original source medium : Blu-ray

Text #1
ID : 4
Format : UTF-8
Codec ID : S_TEXT/UTF8
Codec ID/Info : UTF-8 Plain Text
Duration : 1 h 21 min
Bit rate : 40 b/s
Count of elements : 810
Stream size : 24.4 KiB (0%)
Language : English
Default : Yes
Forced : No

Text #2
ID : 5
Format : UTF-8
Codec ID : S_TEXT/UTF8
Codec ID/Info : UTF-8 Plain Text
Duration : 1 h 21 min
Bit rate : 43 b/s
Count of elements : 846
Stream size : 25.9 KiB (0%)
Title : SDH
Language : English
Default : No
Forced : No

Text #3
ID : 6
ID in the original source medium : 4608 (0x1200)
Format : PGS
Muxing mode : zlib
Codec ID : S_HDMV/PGS
Codec ID/Info : Picture based subtitle format used on BDs/HD-DVDs
Duration : 1 h 21 min
Bit rate : 51.4 kb/s
Count of elements : 1692
Stream size : 30.1 MiB (0%)
Language : English
Default : No
Forced : No
Original source medium : Blu-ray

Menu
00:00:00.000 : en:Chapter 01
00:08:50.279 : en:Chapter 02
00:21:48.307 : en:Chapter 03
00:30:10.934 : en:Chapter 04
00:38:09.453 : en:Chapter 05
00:51:35.509 : en:Chapter 06
01:00:44.724 : en:Chapter 07
01:08:39.740 : en:Chapter 08
01:18:00.801 : en:Chapter 09
01:22:37.369 : en:Chapter 10





1 個附件 售價 大小 下載 時間

Poison.1991.1080p.BluRay.REMUX.AVC.DTS-HD.MA.2.0-FGT.torrent 0 金幣 30.27K 308 次 9小時前

#1樓
發帖時間:2022-05-11 18:21:24   |   回復數:0
游客組