squallzhao
一代宗師

[2020] [其它] [劇情] [BD-Remux] 這是我的愿望 Eyimofe.2020.1080p.BluRay.REMUX.AVC.DTS-HD.MA.5.1-FGT 31.76GB

-->

帖子完整標題:這是我的愿望 Eyimofe.2020.1080p.BluRay.REMUX.AVC.DTS-HD.MA.5.1-FGT 31.76GB



◎譯  名 這是我的愿望 / This Is My Desire
◎片  名 Eyimofe
◎年  代 2020
◎產  地 尼日利亞 / 美國
◎類  別 劇情
◎語  言 英語
◎上映日期 2020-02-24(柏林電影節)
◎IMDb鏈接 https://www.imdb.com/title/tt10365870/
◎豆瓣鏈接 https://movie.douban.com/subject/34954099/
◎片  長 116分鐘
◎導  演 艾里·厄斯利 Arie Esiri (id:1444823)
      楚可·厄斯利 Chuko Esiri (id:1444824)
◎編  劇 楚可·厄斯利 Chuko Esiri (id:1444824)
◎演  員 裘德·阿庫維迪克 Jude Akuwidike (id:1276910)
      托米瓦·埃敦 Tomiwa Edun (id:1323989)

◎簡  介
  故事圍繞在尼日利亞首都拉各斯生活的墨菲和羅莎兩人,以及他們對歐洲新生活的渴望展開。墨菲在意外失去妹妹和孩子后,決定移民去歐洲,而獨自照顧著有身孕妹妹的羅莎也向往著逃離這個令她窒息的環境,并不惜付出一切代價?!哆@是我的愿望》是尼日利亞導演厄斯利兄弟的長片處女作。這部作品以 旁觀角度平穩敘事,看似毫不相關的兩段人生卻隱隱連結,非洲移民的歐洲夢總有著相似的酸甜苦辣。

Video
ID : 1
ID in the original source medium : 4113 (0x1011)
Format : AVC
Format/Info : Advanced Video Codec
Format profile : [email protected]
Format settings : CABAC / 4 Ref Frames
Format settings, CABAC : Yes
Format settings, Reference frames : 4 frames
Codec ID : V_MPEG4/ISO/AVC
Duration : 1 h 56 min
Bit rate mode : Variable
Bit rate : 35.1 Mb/s
Maximum bit rate : 37.0 Mb/s
Width : 1 920 pixels
Height : 1 080 pixels
Display aspect ratio : 16:9
Frame rate mode : Constant
Frame rate : 23.976 (24000/1001/189150) FPS
Color space : YUV
Chroma subsampling : 4:2:0
Bit depth : 8 bits
Scan type : Progressive
Bits/(Pixel*Frame) : 0.707
Stream size : 28.6 GiB (90%)
Language : English
Default : No
Forced : No
Original source medium : Blu-ray

Audio
ID : 2
ID in the original source medium : 4352 (0x1100)
Format : DTS XLL
Format/Info : Digital Theater Systems
Commercial name : DTS-HD Master Audio
Codec ID : A_DTS
Duration : 1 h 56 min
Bit rate mode : Variable
Bit rate : 3 841 kb/s
Channel(s) : 6 channels
Channel layout : C L R Ls Rs LFE
Sampling rate : 48.0 kHz
Frame rate : 93.750 FPS (512 SPF)
Bit depth : 24 bits
Compression mode : Lossless
Stream size : 3.13 GiB (10%)
Title : DTS-HD MA 5.1
Language : English
Default : Yes
Forced : No
Original source medium : Blu-ray

Text #1
ID : 3
Format : UTF-8
Codec ID : S_TEXT/UTF8
Codec ID/Info : UTF-8 Plain Text
Duration : 1 h 48 min
Bit rate : 7 b/s
Count of elements : 204
Stream size : 5.69 KiB (0%)
Title : FORCED
Language : English
Default : No
Forced : Yes

Text #2
ID : 4
Format : UTF-8
Codec ID : S_TEXT/UTF8
Codec ID/Info : UTF-8 Plain Text
Duration : 1 h 49 min
Bit rate : 36 b/s
Count of elements : 992
Stream size : 29.2 KiB (0%)
Language : English
Default : Yes
Forced : No

Text #3
ID : 5
ID in the original source medium : 4608 (0x1200)
Format : PGS
Muxing mode : zlib
Codec ID : S_HDMV/PGS
Codec ID/Info : Picture based subtitle format used on BDs/HD-DVDs
Duration : 1 h 48 min
Bit rate : 6 148 b/s
Count of elements : 408
Stream size : 4.76 MiB (0%)
Language : English
Default : No
Forced : No
Original source medium : Blu-ray

Text #4
ID : 6
ID in the original source medium : 4609 (0x1201)
Format : PGS
Muxing mode : zlib
Codec ID : S_HDMV/PGS
Codec ID/Info : Picture based subtitle format used on BDs/HD-DVDs
Duration : 1 h 49 min
Bit rate : 31.0 kb/s
Count of elements : 1994
Stream size : 24.3 MiB (0%)
Language : English
Default : No
Forced : No
Original source medium : Blu-ray

Menu
00:00:00.000 : en:Chapter 01
00:05:19.152 : en:Chapter 02
00:10:08.274 : en:Chapter 03
00:17:23.208 : en:Chapter 04
00:25:45.335 : en:Chapter 05
00:30:36.584 : en:Chapter 06
00:37:03.846 : en:Chapter 07
00:46:28.702 : en:Chapter 08
00:55:32.662 : en:Chapter 09
01:04:09.262 : en:Chapter 10
01:09:16.902 : en:Chapter 11
01:15:13.759 : en:Chapter 12
01:23:09.526 : en:Chapter 13
01:32:19.075 : en:Chapter 14
01:41:17.654 : en:Chapter 15





1 個附件 售價 大小 下載 時間

Eyimofe.2020.1080p.BluRay.REMUX.AVC.DTS-HD.MA.5.1-FGT.torrent 0 金幣 40.33K 140 次 9小時前

#1樓
發帖時間:2022-05-11 18:20:37   |   回復數:0
游客組