squallzhao
一代宗師

[更 早] [美國] [動作] [BD-Remux] 新加坡喋血記 Singapore.1947.1080p.BluRay.REMUX.AVC.DTS-HD.MA.2.0-FGT 18.87GB

-->

帖子完整標題:新加坡喋血記 Singapore.1947.1080p.BluRay.REMUX.AVC.DTS-HD.MA.2.0-FGT 18.87GB



◎譯  名 新加坡喋血記
◎片  名 Singapore
◎年  代 1947
◎產  地 美國
◎類  別 動作 / 犯罪 / 冒險
◎語  言 英語
◎上映日期 1947-08-13(美國)
◎IMDb鏈接 https://www.imdb.com/title/tt0039829/
◎豆瓣鏈接 https://movie.douban.com/subject/1296002/
◎片  長 79分鐘
◎導  演 約翰·布拉姆 John Brahm (id:1027086)
◎編  劇 塞騰·艾·米勒 Seton I. Miller (id:1048536)
      羅伯特·特爾倫 Robert Thoeren (id:1046411)
◎演  員 弗萊德·麥克莫瑞 Fred MacMurray (id:1049778)
      艾娃·加德納 Ava Gardner (id:1013886)
      羅蘭·卡爾弗 Roland Culver (id:1074822)
      理查德·海頓 Richard Haydn (id:1032252)
      斯普林·白靈頓 Spring Byington (id:1027981)
      托馬斯·戈梅斯 Thomas Gomez (id:1098790)
      波特·霍爾 Porter Hall (id:1099641)
      陳美麗 Maylia (id:1120916)
      福爾摩斯·赫伯特 Holmes Herbert (id:1025546)
      伊迪絲·埃文森 Edith Evanson (id:1084577)
      弗萊德里克·沃洛克 Frederick Worlock (id:1164449)
      Lal Chand Mehra Lal Chand Mehra (id:1124273)
      柯特·康韋 Curt Conway (id:1074330)

Video
ID : 1
ID in the original source medium : 4113 (0x1011)
Format : AVC
Format/Info : Advanced Video Codec
Format profile : [email protected]
Format settings : CABAC / 4 Ref Frames
Format settings, CABAC : Yes
Format settings, Reference frames : 4 frames
Codec ID : V_MPEG4/ISO/AVC
Duration : 1 h 19 min
Bit rate mode : Variable
Bit rate : 31.8 Mb/s
Maximum bit rate : 40.0 Mb/s
Width : 1 920 pixels
Height : 1 080 pixels
Display aspect ratio : 16:9
Frame rate mode : Constant
Frame rate : 24.000 FPS
Color space : YUV
Chroma subsampling : 4:2:0
Bit depth : 8 bits
Scan type : Progressive
Bits/(Pixel*Frame) : 0.639
Stream size : 17.6 GiB (94%)
Language : English
Default : No
Forced : No
Original source medium : Blu-ray

Audio #1
ID : 2
ID in the original source medium : 4352 (0x1100)
Format : DTS XLL
Format/Info : Digital Theater Systems
Commercial name : DTS-HD Master Audio
Codec ID : A_DTS
Duration : 1 h 19 min
Bit rate mode : Variable
Bit rate : 1 989 kb/s
Channel(s) : 2 channels
Channel layout : L R
Sampling rate : 48.0 kHz
Frame rate : 93.750 FPS (512 SPF)
Bit depth : 24 bits
Compression mode : Lossless
Stream size : 1.10 GiB (6%)
Title : DTS-HD MA 2.0
Language : English
Default : Yes
Forced : No
Original source medium : Blu-ray

Audio #2
ID : 3
ID in the original source medium : 4353 (0x1101)
Format : AC-3
Format/Info : Audio Coding 3
Commercial name : Dolby Digital
Codec ID : A_AC3
Duration : 1 h 19 min
Bit rate mode : Constant
Bit rate : 192 kb/s
Channel(s) : 2 channels
Channel layout : L R
Sampling rate : 48.0 kHz
Frame rate : 31.250 FPS (1536 SPF)
Compression mode : Lossy
Stream size : 109 MiB (0%)
Title : DD 2.0
Language : English
Service kind : Complete Main
Default : No
Forced : No
Original source medium : Blu-ray

Text #1
ID : 4
Format : UTF-8
Codec ID : S_TEXT/UTF8
Codec ID/Info : UTF-8 Plain Text
Duration : 1 h 16 min
Bit rate : 65 b/s
Count of elements : 1347
Stream size : 36.9 KiB (0%)
Language : English
Default : Yes
Forced : No

Text #2
ID : 5
Format : UTF-8
Codec ID : S_TEXT/UTF8
Codec ID/Info : UTF-8 Plain Text
Duration : 1 h 19 min
Bit rate : 69 b/s
Count of elements : 1484
Stream size : 40.3 KiB (0%)
Title : SDH
Language : English
Default : No
Forced : No

Text #3
ID : 6
ID in the original source medium : 4608 (0x1200)
Format : PGS
Muxing mode : zlib
Codec ID : S_HDMV/PGS
Codec ID/Info : Picture based subtitle format used on BDs/HD-DVDs
Duration : 1 h 19 min
Bit rate : 45.1 kb/s
Count of elements : 2018
Stream size : 25.5 MiB (0%)
Language : English
Default : No
Forced : No
Original source medium : Blu-ray

Menu
00:00:00.000 : en:Chapter 00
00:13:14.708 : en:Chapter 01
00:21:36.958 : en:Chapter 02
00:32:26.958 : en:Chapter 03
00:42:01.291 : en:Chapter 04
00:51:35.750 : en:Chapter 05
00:59:35.125 : en:Chapter 06
01:10:36.291 : en:Chapter 07





1 個附件 售價 大小 下載 時間

Singapore.1947.1080p.BluRay.REMUX.AVC.DTS-HD.MA.2.0-FGT.torrent 0 金幣 24.22K 175 次 9小時前

#1樓
發帖時間:2022-05-11 18:19:28   |   回復數:0
游客組