squallzhao
一代宗師

[更 早] [美國] [劇情] [BD-Remux] 風暴狂潮 R.P.M.1970.1080p.BluRay.REMUX.AVC.LPCM.1.0-FGT 24.06GB

-->

帖子完整標題:風暴狂潮 R.P.M.1970.1080p.BluRay.REMUX.AVC.LPCM.1.0-FGT 24.06GB



◎譯  名 風暴狂潮 / Epanastasis kathe lepto
◎片  名 R.P.M.
◎年  代 1970
◎產  地 美國
◎類  別 劇情
◎語  言 英語
◎上映日期 1970
◎IMDb鏈接 https://www.imdb.com/title/tt0066273/
◎豆瓣鏈接 https://movie.douban.com/subject/5055991/
◎片  長 92 分鐘
◎導  演 斯坦利·克雷默 Stanley Kramer (id:1027460)
◎編  劇 埃里奇·西格爾 Erich Segal (id:1018524)
◎演  員 安東尼·奎恩 Anthony Quinn (id:1048161)
      安-瑪格麗特 Ann-Margret (id:1055071)
      大衛·萊德 David Ladd (id:1004957)
      Joseph Torres Sr. Joseph Torres Sr. (id:1203888)
      約翰·倫巴 John Zaremba (id:1165212)
      約翰·麥克利亞姆 John McLiam (id:1007184)
      唐納德·莫法特 Donald Moffat (id:1119503)
      唐·基弗 Don Keefer (id:1104856)
      阿蘭·休伊特 Alan Hewitt (id:1097302)
      Billy Bowles Billy Bowles (id:1077273)
      諾曼·伯頓 Norman Burton (id:1071509)
      Regis Cordic Regis Cordic (id:1068828)
      拉蒙·比厄里 Ramon Bieri (id:1066900)
      Frank Alesia Frank Alesia (id:1016603)
      加里·洛克伍德 Gary Lockwood (id:1032145)
      保羅·溫菲爾德 Paul Winfield (id:1019128)
      格雷厄姆·賈維斯 Graham Jarvis (id:1050250)
      斯坦利·克雷默 Stanley Kramer (id:1027460)
      小佩里·博特金 Perry Botkin Jr. (id:1001725)
      巴里·德·沃爾宗 Barry De Vorzon (id:1023483)
      Michel Hugo Michel Hugo (id:1287125)
      威廉·A·里昂 William A. Lyon (id:1008772)
      羅伯特·克萊特沃西 Robert Clatworthy (id:1017247)
      喬治·詹姆斯·霍普金斯 George James Hopkins (id:1003631)
      莫斯·馬布里 Moss Mabry (id:1012849)
      Fred B. Phillips Fred B. Phillips (id:1135398)

Video
ID : 1
ID in the original source medium : 4113 (0x1011)
Format : AVC
Format/Info : Advanced Video Codec
Format profile : [email protected]
Format settings : CABAC / 3 Ref Frames
Format settings, CABAC : Yes
Format settings, Reference frames : 3 frames
Codec ID : V_MPEG4/ISO/AVC
Duration : 1 h 31 min
Bit rate mode : Variable
Bit rate : 35.0 Mb/s
Maximum bit rate : 40.0 Mb/s
Width : 1 920 pixels
Height : 1 080 pixels
Display aspect ratio : 16:9
Frame rate mode : Constant
Frame rate : 23.976 (24000/1001/189150) FPS
Color space : YUV
Chroma subsampling : 4:2:0
Bit depth : 8 bits
Scan type : Progressive
Bits/(Pixel*Frame) : 0.704
Stream size : 22.4 GiB (93%)
Writing library : x264 core 148 r2705 3f5ed56
Encoding settings : cabac=1 / ref=4 / deblock=0:-1:-1 / analyse=0x3:0x133 / me=umh / subme=10 / psy=1 / psy_rd=1.00:0.15 / mixed_ref=1 / me_range=24 / chroma_me=1 / trellis=2 / 8x8dct=1 / cqm=0 / deadzone=21,11 / fast_pskip=1 / chroma_qp_offset=-3 / threads=34 / lookahead_threads=2 / sliced_threads=0 / slices=4 / nr=0 / decimate=1 / interlaced=0 / bluray_compat=1 / constrained_intra=0 / bframes=3 / b_pyramid=1 / b_adapt=2 / b_bias=0 / direct=3 / weightb=1 / open_gop=1 / weightp=1 / keyint=24 / keyint_min=1 / scenecut=20 / intra_refresh=0 / rc_lookahead=24 / rc=abr / mbtree=0 / bitrate=35000 / ratetol=1.0 / qcomp=0.60 / qpmin=0 / qpmax=69 / qpstep=4 / vbv_maxrate=40000 / vbv_bufsize=30000 / nal_hrd=vbr / filler=0 / ip_ratio=1.40 / pb_ratio=1.30 / aq=1:0.10
Language : English
Default : No
Forced : No
Color range : Limited
Color primaries : BT.709
Transfer characteristics : BT.709
Matrix coefficients : BT.709
Original source medium : Blu-ray

Audio #1
ID : 2
ID in the original source medium : 4352 (0x1100)
Format : PCM
Format settings : Little / Signed
Codec ID : A_PCM/INT/LIT
Duration : 1 h 31 min
Bit rate mode : Constant
Bit rate : 1 152 kb/s
Channel(s) : 1 channel
Sampling rate : 48.0 kHz
Frame rate : 30.000 FPS (1600 SPF)
Bit depth : 24 bits
Stream size : 758 MiB (3%)
Title : LPCM 1.0
Language : English
Default : Yes
Forced : No
Original source medium : Blu-ray

Audio #2
ID : 3
ID in the original source medium : 4353 (0x1101)
Format : AC-3
Format/Info : Audio Coding 3
Commercial name : Dolby Digital
Codec ID : A_AC3
Duration : 1 h 31 min
Bit rate mode : Constant
Bit rate : 192 kb/s
Channel(s) : 2 channels
Channel layout : L R
Sampling rate : 48.0 kHz
Frame rate : 31.250 FPS (1536 SPF)
Compression mode : Lossy
Stream size : 126 MiB (0%)
Title : DD 2.0
Language : English
Service kind : Complete Main
Default : No
Forced : No
Original source medium : Blu-ray

Audio #3
ID : 4
ID in the original source medium : 4354 (0x1102)
Format : PCM
Format settings : Little / Signed
Codec ID : A_PCM/INT/LIT
Duration : 1 h 31 min
Bit rate mode : Constant
Bit rate : 1 152 kb/s
Channel(s) : 1 channel
Sampling rate : 48.0 kHz
Frame rate : 30.000 FPS (1600 SPF)
Bit depth : 24 bits
Stream size : 758 MiB (3%)
Title : LPCM 1.0
Default : No
Forced : No
Original source medium : Blu-ray

Text #1
ID : 5
Format : UTF-8
Codec ID : S_TEXT/UTF8
Codec ID/Info : UTF-8 Plain Text
Duration : 1 h 31 min
Bit rate : 68 b/s
Count of elements : 1317
Stream size : 46.1 KiB (0%)
Language : English
Default : Yes
Forced : No

Text #2
ID : 6
Format : UTF-8
Codec ID : S_TEXT/UTF8
Codec ID/Info : UTF-8 Plain Text
Duration : 1 h 31 min
Bit rate : 70 b/s
Count of elements : 1375
Stream size : 47.5 KiB (0%)
Title : SDH
Language : English
Default : No
Forced : No

Text #3
ID : 7
ID in the original source medium : 4608 (0x1200)
Format : PGS
Muxing mode : zlib
Codec ID : S_HDMV/PGS
Codec ID/Info : Picture based subtitle format used on BDs/HD-DVDs
Duration : 1 h 31 min
Bit rate : 46.3 kb/s
Count of elements : 2760
Stream size : 30.4 MiB (0%)
Language : English
Default : No
Forced : No
Original source medium : Blu-ray

Menu
00:00:00.000 : en:Chapter 01
00:08:25.463 : en:Chapter 02
00:16:24.024 : en:Chapter 03
00:27:46.623 : en:Chapter 04
00:35:44.350 : en:Chapter 05
00:46:37.586 : en:Chapter 06
00:54:27.222 : en:Chapter 07
01:03:05.156 : en:Chapter 08
01:13:17.726 : en:Chapter 09
01:25:24.661 : en:Chapter 10





1 個附件 售價 大小 下載 時間

R.P.M.1970.1080p.BluRay.REMUX.AVC.LPCM.1.0-FGT.torrent 0 金幣 30.71K 140 次 9小時前

#1樓
發帖時間:2022-05-11 18:19:13   |   回復數:0
游客組