squallzhao
一代宗師

[更 早] [美國] [劇情] [BD-Remux] 怒海亡魂 The.Raging.Tide.1951.1080p.BluRay.REMUX.AVC.DTS-HD.MA.2.0-FGT 18.85GB

-->

帖子完整標題:怒海亡魂 The.Raging.Tide.1951.1080p.BluRay.REMUX.AVC.DTS-HD.MA.2.0-FGT 18.85GB



◎譯  名 怒海亡魂 / 怒海亡魂(港) / 怒濤狂瀾
◎片  名 The Raging Tide
◎年  代 1951
◎產  地 美國
◎類  別 劇情 / 黑色電影
◎語  言 英語
◎上映日期 1951
◎IMDb鏈接 https://www.imdb.com/title/tt0043957/
◎豆瓣鏈接 https://movie.douban.com/subject/5065656/
◎片  長 93 分鐘
◎導  演 喬治·雪曼 George Sherman (id:1012710)
◎編  劇 歐內斯特·K·甘恩 Ernest K. Gann (id:1028869)
◎演  員 謝利·溫特斯 Shelley Winters (id:1025237)
      理查德·康特 Richard Conte (id:1002815)
      斯蒂芬·麥克納利 Stephen McNally (id:1122196)
      查爾斯·比克福德 Charles Bickford (id:1014094)
      艾歷克斯·尼科 Alex Nicol (id:1005447)
      蒂托·沃洛 Tito Vuolo (id:1166385)
      雷·沃克 Ray Walker (id:1165327)
      Robert A. O'Neil (id:1220755)
      米內爾娃·尤雷卡爾 Minerva Urecal (id:1150605)
      約翰·麥克因泰 John McIntire (id:1010716)
      Chubby Johnson Chubby Johnson (id:1108018)
      Syd Saylor Syd Saylor (id:1139234)
      Pepito Pérez Pepito Pérez (id:1142998)
      John W. Rogers John W. Rogers (id:1053783)
      埃隆·羅森伯格 Aaron Rosenberg (id:1051479)
      弗蘭克·斯金納 Frank Skinner (id:1157480)
      拉塞爾·麥蒂 Russell Metty (id:1050657)
      泰德·J·肯特 Ted J. Kent (id:1029686)
      羅素·A·蓋斯曼 Russell A. Gausman (id:1093495)
      奧利弗·埃默特 Oliver Emert (id:1088379)
      希爾亞德·M·布朗 Hilyard M. Brown (id:1008469)
      伯納德·赫茲布倫 Bernard Herzbrun (id:1054256)
      比爾·托馬斯 Bill Thomas (id:1151638)
      百德·沃斯塔梅爾 Bud Westmore (id:1167200)

◎簡  介
  A San Francisco hood is rubbed out by rival Bruno Felkin, who himself reports the crime to Homicide Lieut. Kelsey in an alibi scheme which fails. To escape, he stows away on a fishing boat. At sea, skipper Hamil Linder receives Bruno kindly, teaching him fishing; Bruno enlists Hamil's wayward son Carl to tend his slot machines. Then Carl takes an interest in Bruno's girl Connie...

Video
ID : 1
ID in the original source medium : 4113 (0x1011)
Format : AVC
Format/Info : Advanced Video Codec
Format profile : [email protected]
Format settings : CABAC / 4 Ref Frames
Format settings, CABAC : Yes
Format settings, Reference frames : 4 frames
Codec ID : V_MPEG4/ISO/AVC
Duration : 1 h 32 min
Bit rate mode : Variable
Bit rate : 26.9 Mb/s
Maximum bit rate : 40.0 Mb/s
Width : 1 920 pixels
Height : 1 080 pixels
Display aspect ratio : 16:9
Frame rate mode : Constant
Frame rate : 24.000 FPS
Color space : YUV
Chroma subsampling : 4:2:0
Bit depth : 8 bits
Scan type : Progressive
Bits/(Pixel*Frame) : 0.540
Stream size : 17.4 GiB (92%)
Language : English
Default : No
Forced : No
Original source medium : Blu-ray

Audio #1
ID : 2
ID in the original source medium : 4352 (0x1100)
Format : DTS XLL
Format/Info : Digital Theater Systems
Commercial name : DTS-HD Master Audio
Codec ID : A_DTS
Duration : 1 h 32 min
Bit rate mode : Variable
Bit rate : 2 002 kb/s
Channel(s) : 2 channels
Channel layout : L R
Sampling rate : 48.0 kHz
Frame rate : 93.750 FPS (512 SPF)
Bit depth : 24 bits
Compression mode : Lossless
Stream size : 1.30 GiB (7%)
Title : DTS-HD MA 2.0
Language : English
Default : Yes
Forced : No
Original source medium : Blu-ray

Audio #2
ID : 3
ID in the original source medium : 4353 (0x1101)
Format : AC-3
Format/Info : Audio Coding 3
Commercial name : Dolby Digital
Codec ID : A_AC3
Duration : 1 h 32 min
Bit rate mode : Constant
Bit rate : 192 kb/s
Channel(s) : 2 channels
Channel layout : L R
Sampling rate : 48.0 kHz
Frame rate : 31.250 FPS (1536 SPF)
Compression mode : Lossy
Stream size : 127 MiB (1%)
Title : DD 2.0
Language : English
Service kind : Complete Main
Default : No
Forced : No
Original source medium : Blu-ray

Text #1
ID : 4
Format : UTF-8
Codec ID : S_TEXT/UTF8
Codec ID/Info : UTF-8 Plain Text
Duration : 1 h 30 min
Bit rate : 69 b/s
Count of elements : 1355
Stream size : 46.3 KiB (0%)
Language : English
Default : Yes
Forced : No

Text #2
ID : 5
Format : UTF-8
Codec ID : S_TEXT/UTF8
Codec ID/Info : UTF-8 Plain Text
Duration : 1 h 32 min
Bit rate : 71 b/s
Count of elements : 1474
Stream size : 48.4 KiB (0%)
Title : SDH
Language : English
Default : No
Forced : No

Text #3
ID : 6
ID in the original source medium : 4608 (0x1200)
Format : PGS
Muxing mode : zlib
Codec ID : S_HDMV/PGS
Codec ID/Info : Picture based subtitle format used on BDs/HD-DVDs
Duration : 1 h 32 min
Bit rate : 44.9 kb/s
Count of elements : 2519
Stream size : 29.7 MiB (0%)
Language : English
Default : No
Forced : No
Original source medium : Blu-ray

Menu
00:00:00.000 : en:Chapter 00
00:09:07.000 : en:Chapter 01
00:20:53.250 : en:Chapter 02
00:31:24.458 : en:Chapter 03
00:41:23.208 : en:Chapter 04
00:56:46.916 : en:Chapter 05
01:07:50.666 : en:Chapter 06
01:21:24.958 : en:Chapter 07





1 個附件 售價 大小 下載 時間

The.Raging.Tide.1951.1080p.BluRay.REMUX.AVC.DTS-HD.MA.2.0-FGT.torrent 0 金幣 24.21K 133 次 9小時前

#1樓
發帖時間:2022-05-11 18:18:07   |   回復數:0
游客組