squallzhao
一代宗師

[更 早] [美國] [劇情] [BD-720P] 愛瓊斯 Love.Jones.1997.720p.BluRay.x264-GAZER 3.77GB

-->

帖子完整標題:愛瓊斯 Love.Jones.1997.720p.BluRay.x264-GAZER 3.77GB



◎譯  名 愛瓊斯
◎片  名 Love Jones
◎年  代 1997
◎產  地 美國
◎類  別 劇情 / 愛情
◎語  言 英語
◎上映日期 1997-06-27
◎IMDb鏈接 https://www.imdb.com/title/tt0119572/
◎豆瓣鏈接 https://movie.douban.com/subject/1422901/
◎片  長 104 分鐘
◎導  演 Theodore Witcher Theodore Witcher (id:1301121)
◎編  劇 Theodore Witcher Theodore Witcher (id:1301121)
◎演  員 拉倫茲·泰特 Larenz Tate (id:1054669)
      尼婭·朗 Nia Long (id:1040570)
      艾賽亞·華盛頓 Isaiah Washington (id:1025234)
      麗莎·妮可·卡森 Lisa Nicole Carson (id:1055129)
      比爾·貝拉米 Bill Bellamy (id:1000297)
      萊昂納德·羅伯茨 Leonard Roberts (id:1138045)
      卡哈利·凱恩 Khalil Kain (id:1102695)
      賈克琳·弗萊明 Jaqueline Fleming (id:1081065)
      Benjamin LeVert Benjamin LeVert (id:1289872)
      約翰·M·沃森 John M. Watson Sr. (id:1164595)
      Simon James Simon James (id:1111283)
      Darryl Jones Darryl Jones (id:1038589)
      尼克·維克斯勒 Nick Wechsler (id:1300582)
      韋克萊夫·讓 Wyclef Jean (id:1027573)
      Darryl Jones Darryl Jones (id:1038589)
      Ernest Holzman Ernest Holzman (id:1286853)
      Maysie Hoy Maysie Hoy (id:1023679)
      簡·奧德曼 Jane Alderman (id:1276949)
      Robi Reed-Humes Robi Reed-Humes (id:1295374)
      琳達·梅拉佐 Linda Melazzo (id:1291788)

Video
ID : 1
Format : AVC
Format/Info : Advanced Video Codec
Format profile : [email protected]
Format settings : CABAC / 9 Ref Frames
Format settings, CABAC : Yes
Format settings, Reference frames : 9 frames
Codec ID : V_MPEG4/ISO/AVC
Duration : 1 h 48 min
Bit rate : 4 193 kb/s
Width : 1 280 pixels
Height : 692 pixels
Display aspect ratio : 1.85:1
Frame rate mode : Constant
Frame rate : 23.976 (24000/1001/189150) FPS
Color space : YUV
Chroma subsampling : 4:2:0
Bit depth : 8 bits
Scan type : Progressive
Bits/(Pixel*Frame) : 0.197
Stream size : 3.19 GiB (85%)
Writing library : x264 core 164 r3094 bfc87b7
Encoding settings : cabac=1 / ref=9 / deblock=1:-3:-3 / analyse=0x3:0x133 / me=umh / subme=10 / psy=1 / psy_rd=1.20:0.00 / mixed_ref=1 / me_range=24 / chroma_me=1 / trellis=2 / 8x8dct=1 / cqm=0 / deadzone=21,11 / fast_pskip=0 / chroma_qp_offset=-2 / threads=22 / lookahead_threads=3 / sliced_threads=0 / nr=0 / decimate=0 / interlaced=0 / bluray_compat=0 / constrained_intra=0 / bframes=8 / b_pyramid=2 / b_adapt=2 / b_bias=0 / direct=3 / weightb=1 / open_gop=0 / weightp=2 / keyint=250 / keyint_min=23 / scenecut=40 / intra_refresh=0 / rc_lookahead=60 / rc=crf / mbtree=1 / crf=17.0 / qcomp=0.60 / qpmin=0 / qpmax=69 / qpstep=4 / ip_ratio=1.40 / aq=3:0.90
Default : Yes
Forced : No
Color range : Limited
Matrix coefficients : BT.709

Audio #1
ID : 2
Format : AC-3
Format/Info : Audio Coding 3
Commercial name : Dolby Digital
Codec ID : A_AC3
Duration : 1 h 48 min
Bit rate mode : Constant
Bit rate : 640 kb/s
Channel(s) : 6 channels
Channel layout : L R C LFE Ls Rs
Sampling rate : 48.0 kHz
Frame rate : 31.250 FPS (1536 SPF)
Compression mode : Lossy
Stream size : 499 MiB (13%)
Language : English
Service kind : Complete Main
Default : Yes
Forced : No

Audio #2
ID : 3
Format : AAC LC
Format/Info : Advanced Audio Codec Low Complexity
Codec ID : A_AAC-2
Duration : 1 h 48 min
Bit rate : 104 kb/s
Channel(s) : 2 channels
Channel layout : L R
Sampling rate : 48.0 kHz
Frame rate : 46.875 FPS (1024 SPF)
Compression mode : Lossy
Delay relative to video : 20 ms
Stream size : 80.7 MiB (2%)
Title : Commentary
Language : English
Default : No
Forced : No

Text
ID : 4
Format : PGS
Muxing mode : zlib
Codec ID : S_HDMV/PGS
Codec ID/Info : Picture based subtitle format used on BDs/HD-DVDs
Duration : 1 h 48 min
Bit rate : 61.8 kb/s
Count of elements : 3491
Stream size : 47.9 MiB (1%)
Title : SDH
Language : English
Default : No
Forced : No

Menu
00:00:00.000 : Chapter 01
00:02:09.880 : Chapter 02
00:03:14.403 : Chapter 03
00:07:15.018 : Chapter 04
00:14:04.343 : Chapter 05
00:23:53.474 : Chapter 06
00:27:49.668 : Chapter 07
00:32:58.852 : Chapter 08
00:35:01.391 : Chapter 09
00:36:50.542 : Chapter 10
00:40:03.943 : Chapter 11
00:42:57.241 : Chapter 12
00:47:42.068 : Chapter 13
00:51:37.720 : Chapter 14
00:54:30.893 : Chapter 15
01:07:06.814 : Chapter 16
01:11:37.251 : Chapter 17
01:18:59.944 : Chapter 18
01:21:34.348 : Chapter 19
01:27:34.958 : Chapter 20
01:33:20.345 : Chapter 21
01:42:35.024 : Chapter 22
01:48:58.198 : Chapter 23





1 個附件 售價 大小 下載 時間

Love.Jones.1997.720p.BluRay.x264-GAZER.torrent 0 金幣 19.55K 70 次 9小時前

#1樓
發帖時間:2022-05-11 18:03:55   |   回復數:0
游客組